&title=[宴] からくりピエロ
&artist=40mP
&wholebpm=102
&demo_seek=49.3
&demo_len=18.9
&lv_7=撫
&inote_7=(102.0){1},4>6[2:1],
{1}5<3[2:1],
{2}4^1[4:1],1?^6[10200.00#1:25],
{2}5^8[4:1],8?^3[10200.00#1:25],
{2}3q8[4:1],8?q6[10200.00#1:25],
{2}6p1[4:1],1?p3[10200.00#1:25],
{2}3q1[4:1],1?q6[10200.00#1:25],
{2}6p8[4:1],8?p3[10200.00#1:25],
{2}3<7[4:1],7?pp2[10200.00#2:75],
{2}6>2[4:1],2?qq7[10200.00#2:75],
{2}2>6[4:1],6?pp1[10200.00#2:75],
{2}7<3[4:1],3?qq8[10200.00#2:75],
{4}3>7[4:1],,7?<3[10200.00#1:25],3?>7[10200.00#1:25],
{4}7?<3[10200.00#1:25],3?p8[10200.00#1:50],,,
{4}6<2[4:1],,2?>6[10200.00#1:25],6?<2[10200.00#1:25],
{4}2?>6[10200.00#1:25],6?q1[10200.00#1:50],,,
{4}3^6[4:1],,6?p1[10200.00#1:25],1?^4[10200.00#1:25],
{4}6^3[4:1],,3?q8[10200.00#1:25],8?^5[10200.00#1:25],
{4}4^1[8:1],5^8[8:1],4^1[8:1],6-4[8:1],
{8},4?-7[10200.00#2:25],7?-3[10200.00#2:25],3?-8[10200.00#2:25],8?-2[10200.00#2:25],2?-6[10200.00#2:25],6?-1[10200.00#2:25],,
{4}8^5[4:1],,5?p8[10200.00#1:25],8?^5[10200.00#1:25],
{4}5?p8[10200.00#1:25],8?^5[10200.00#1:25],5?p8[10200.00#1:25],,
{4}1^4[4:1],,4?q1[10200.00#1:25],1?^4[10200.00#1:25],
{4}4?q1[10200.00#1:25],1?^4[10200.00#1:25],4?q1[10200.00#1:25],,
{4}1^4[4:1]/8q5[4:1],,4?q1[10200.00#1:25]/5?^8[10200.00#1:25],1?^4[10200.00#1:25]/8?q5[10200.00#1:25],
{4}4?q1[10200.00#1:25]/5?^8[10200.00#1:25],1?^4[10200.00#1:25]/8?q5[10200.00#1:25],4?q1[10200.00#1:25]/5?^8[10200.00#1:25],,
{4}4^1[4:1]/5p8[4:1],,1?p4[10200.00#1:25]/8?^5[10200.00#1:25],4?^1[10200.00#1:25]/5?p8[10200.00#1:25],
{4}1?p4[10200.00#1:25]/8?^5[10200.00#1:25],4?^1[10200.00#1:25]/5?p8[10200.00#1:25],1?p4[10200.00#1:25]/8?^5[10200.00#1:25],,
{4}2^5[4:1],,5?q2[10200.00#1:25],2?^5[10200.00#1:25],
{4}5?q2[10200.00#1:25],2?^5[10200.00#1:25],5?q2[10200.00#1:25],,
{4}7^4[4:1],,4?p7[10200.00#1:25],7?^4[10200.00#1:25],
{4}4?p7[10200.00#1:25],7?^4[10200.00#1:25],4?p7[10200.00#1:25],,
{4}1bp4[4:1]/5b^8[4:1],,4?^1[10200.00#1:25]/8?q5[10200.00#1:25],1?p4[10200.00#1:25]/5?^8[10200.00#1:25],
{4}4?^1[10200.00#1:25]/8?q5[10200.00#1:25],1?p4[10200.00#1:25]/5?^8[10200.00#1:25],4?^1[10200.00#1:25]/8?q5[10200.00#1:25],,
{4}4b^1[4:1]/8bq5[4:1],,1?p4[10200.00#1:25]/5?^8[10200.00#1:25],4?^1[10200.00#1:25]/8?q5[10200.00#1:25],
{4}1?p4[10200.00#1:25]/5?^8[10200.00#1:25],4?^1[10200.00#1:25]/8?q5[10200.00#1:25],1?p4[10200.00#1:25]/5?^8[10200.00#1:25],,
{4}2bp5[4:1]/6b^1[4:1],,1?q6[10200.00#1:25]/5?^2[10200.00#1:25],2?p5[10200.00#1:25]/6?^1[10200.00#1:25],
{4}1?q6[10200.00#1:25]/5?^2[10200.00#1:25],2?p5[10200.00#1:25]/6?^1[10200.00#1:25],1?q6[10200.00#1:25]/5?^2[10200.00#1:25],,
{4}3bp6[4:1]/7b^2[4:1],,2?q7[10200.00#1:25]/6?^3[10200.00#1:25],3?p6[10200.00#1:25]/7?^2[10200.00#1:25],
{4}2?q7[10200.00#1:25]/6?^3[10200.00#1:25],3?p6[10200.00#1:25]/7?^2[10200.00#1:25],2?q7[10200.00#1:25]/6?^3[10200.00#1:25],,
{4}1^4[4:1],,4?^7[10200.00#1:25],7?^2[10200.00#1:25],
{4}2?^5[10200.00#1:25],5?^8[10200.00#1:25],8?^3[10200.00#1:25],,
{4}8^5[4:1],,5?^2[10200.00#1:25],2?^7[10200.00#1:25],
{4}7?^4[10200.00#1:25],4?^1[10200.00#1:25],1?^6[10200.00#1:25],,
{4}4>5[2:1],,,5?p4[10200.00#1:50],
{4},4?>5[10200.00#1:50],,,
{4}5<4[2:1],,,4?q5[10200.00#1:50],
{4},5?<4[10200.00#1:50],,,
E
